#TITLE:Gay Bar;
#SUBTITLE:;
#ARTIST:Electric Six;
#TITLETRANSLIT:;
#SUBTITLETRANSLIT:;
#ARTISTTRANSLIT:;
#CREDIT:;
#BANNER:;
#BACKGROUND:;
#LYRICSPATH:;
#CDTITLE:jizzltizzl.PNG;
#MUSIC:Gay Bar.mp3;
#OFFSET:-0.100;
#SAMPLESTART:12.004;
#SAMPLELENGTH:12.000;
#SELECTABLE:YES;
#BPMS:0.000=172.000;
#STOPS:;
#BGCHANGES:;
// cache tags:
#FIRSTBEAT:0.000;
#LASTBEAT:396.000;
#SONGFILENAME:Songs/Music V.I.P ^_^/Gay Bar/Gay Bar.sm;
#HASMUSIC:1;
#HASBANNER:0;
#MUSICLENGTH:140.956;
// end cache tags

//---------------dance-single - Copied from----------------
#NOTES:
     dance-single:
     Copied from:
     Challenge:
     10:
     0.983,1.000,1.000,0.944,0.216,674.000,163.000,133.000,0.000,21.000:
1000
0100
0010
0001
,
0001
0000
0010
0000
0100
1000
0100
0110
,
2002
3003
0002
2003
3022
0203
2030
3301
,
2002
3003
2002
3223
1331
0110
1001
0010
,
1100
0000
0011
0000
1000
0100
0010
0001
,
0001
0010
0100
1000
0001
0010
0100
1000
0001
0010
0100
1000
0001
0010
0100
1000
,
0001
1000
0001
1000
0001
1000
0001
1000
0001
0000
0010
0000
1000
0000
0100
0000
,
0001
1000
0100
0010
1001
1001
1001
1001
,
1001
0000
0001
0010
1000
0100
0001
0010
,
1000
0000
1000
0010
0001
0100
1000
0010
,
1001
0000
0001
0010
1000
0100
0001
0010
,
1000
0000
1000
0010
0001
0100
1000
0010
,
1001
0000
0010
0100
1001
0000
1000
0000
0100
0000
0010
0000
0001
0000
1000
0000
,
0110
0000
0000
0000
0001
0000
0010
0000
0100
0000
1000
0000
0001
0010
0100
1000
,
0001
0010
0100
0001
0010
0100
0001
0010
,
0100
0001
0010
1000
0100
0001
0010
0100
,
1001
0000
1000
0001
0110
0000
1001
0000
,
1000
0100
0001
0010
1100
0000
0011
0000
,
1000
0000
0001
1000
0001
0000
1001
0000
,
1000
0001
0001
1000
2000
0002
3003
0220
,
0000
0330
0001
1000
0001
0010
0100
1000
,
0001
0000
1000
0011
1001
1001
1001
1001
,
0110
1001
1001
0110
1001
1001
0110
1001
,
1001
0110
1001
1001
1000
0100
0001
0010
,
2002
0000
3223
0000
2330
3100
0011
2200
,
3300
1000
0002
0000
2003
0000
3002
2003
,
0000
0000
0000
0000
3001
0000
0010
0100
1000
0000
0100
0000
0001
0000
0220
0000
,
0330
2002
3223
0000
2330
0000
3001
0000
,
2002
0000
3223
0000
2330
3100
0011
2200
,
3300
1000
0002
0000
2003
0000
3002
2003
,
0000
0000
0000
0000
3001
0000
0010
0100
1000
0000
0100
0000
0001
0000
0220
0000
,
0330
2002
3223
0000
1331
0000
1001
0000
,
2001
0000
0010
0000
0001
0100
0100
3002
,
0000
1000
0100
1000
0010
0100
2003
3000
,
0011
0000
1100
0000
0110
2002
3003
1001
,
0100
0010
0100
0010
1000
0100
0001
0010
,
1002
0000
0100
0000
2003
0000
0100
0010
,
3002
1000
0023
1000
0230
0001
2300
3001
,
2000
0000
0010
0000
0001
0100
0100
3002
,
0000
1000
0100
1000
0010
0100
2003
3000
,
2000
0000
3002
0023
0230
2300
3002
0013
,
2002
3003
2000
3200
0320
0032
2003
3100
,
0002
0000
2003
3200
0320
0032
0023
0230
,
0322
0000
0000
0000
2033
0000
3200
0000
0310
0001
0010
0000
1000
0000
0100
0000
,
1000
0000
0000
0000
0000
0000
0110
0000
1000
0100
0010
0001
1000
0000
0100
0000
,
0011
0000
0011
0100
1100
0010
0011
2000
,
3110
1001
1001
0110
1001
1001
0110
1001
,
1001
0110
1001
1001
1000
0100
0001
0010
,
1100
0011
0011
1100
0011
0011
1100
0011
,
2000
0000
0000
0000
0000
0000
0000
0000
0001
0000
0010
0100
0001
0000
3000
0000
,
2002
0000
0000
0000
,
0000
0000
0000
0000
,
0000
0000
0000
0000
,
3003
0000
0000
0000
,
1001
0000
0010
0100
0010
0001
0010
0100
,
1001
0000
0100
0010
0100
0010
0100
0010
,
1001
0000
0110
0000
1001
0000
0010
0100
,
1001
0000
0000
0110
0000
1001
0000
0110
,
1001
0000
0001
0100
0001
0100
0001
0010
,
2001
0000
3002
0023
0230
2300
3200
0310
,
2002
0000
3223
1331
0220
1331
0220
1331
,
1000
0100
1000
0100
1000
0100
1000
0100
0010
1000
0010
1000
0010
1000
0010
1000
,
0101
0000
0001
0010
1000
0100
0001
0010
,
1000
0000
1000
0010
0001
0100
1000
0010
,
1001
0000
0001
0010
1000
0100
0001
0010
,
1000
0000
1000
0010
0001
0100
1000
0010
,
1001
0000
0010
0100
1001
0000
1000
0000
0100
0000
0010
0000
0001
0000
1000
0000
,
0110
0000
0000
0000
0001
0000
0010
0000
0100
0000
1000
0000
1000
0100
0001
0010
,
1000
0100
0010
1000
0100
0010
1000
0100
,
0010
1000
0100
0010
1000
0100
0010
1000
,
1000
1000
1000
1000
1000
0000
0001
0001
0001
0001
0001
0000
1000
1000
0010
0010
,
0010
0000
1000
0001
1000
0001
1000
0001
0010
0100
1000
0001
0010
0000
0000
0000
,
1001
0000
1000
0100
0001
0000
0010
0000
0001
0000
0010
0000
0100
0000
2000
0000
,
0000
3100
0010
0100
0001
0010
0100
1000
,
0011
1000
0100
1000
0100
0000
0010
0100
1000
0001
0010
0100
1000
0000
0001
0000
,
1000
0110
1001
1100
0110
0011
0110
1001
,
1001
0000
1000
0100
0001
0000
0010
0000
0001
0000
0010
0000
0100
0000
2000
0000
,
0000
3100
0010
0100
0001
0010
0100
1000
,
0011
1000
0100
1000
0100
0000
0010
0100
1000
0001
0010
0100
1000
0000
0001
0000
,
1000
0110
1001
1100
0110
0011
0110
1001
,
1001
0000
0000
0000
1000
0000
0000
0010
0001
0000
0010
0000
0100
0000
1000
0000
,
0000
0000
1001
0100
1100
0010
0011
0000
,
1001
0000
0000
0000
0110
0000
0000
1000
0001
0000
1000
0000
0010
0000
0001
0000
,
0000
0000
1100
1100
0011
0011
0000
1100
,
0000
0000
0200
0302
0203
0302
0203
0301
,
0000
0000
1000
0110
0001
0110
1000
0000
,
1010
0000
1010
0000
1100
0000
1100
0000
2010
0000
0000
0010
3100
0000
0000
0000
,
0000
0000
0001
0000
0010
0000
0100
0000
0001
0010
0100
1000
0001
0010
0100
0000
,
2001
0000
0010
0000
0001
0100
0100
3002
,
0000
1000
0100
1000
0010
0100
2003
3000
,
0011
0000
1100
0000
0110
2002
3003
1001
,
0100
0010
0100
0010
1000
0100
0001
0010
,
1002
0000
0100
0000
2003
0000
0100
0010
,
3002
1000
0023
1000
0230
0001
2300
3001
,
2000
0000
0010
0000
0001
0100
0100
3002
,
0000
1000
0100
1000
0010
0100
2003
3000
,
2002
0000
0000
0000
,
0000
0000
0000
0000
,
0000
0000
0000
3003
,
1001
0000
0000
0000
;
